Ffmpeg Remux

For example, a WAV file could be imported by Audacity's native WAV importer or by the optional FFmpeg library if this was installed. 3-1 Solution: * I've build ffmpeg n2. Create the FolderM4AtoM4Aremux. Originally Posted by usta. If null then remux will use default ffmpeg from remux. Use the following command to remux the old video with the new audio AND trim the video: ffmpeg -i videofile. So if more cores are available to you on EC2 you probably have to specifically have to ask for more cores with the threads 2 after c:v. However it only took the first audio stream regardless of language. 1 audio to 2. program: Path to ffmpeg bin. 264 video to MP4 In some rare cases the. libavformat implements streaming protocols, container formats and basic I/O access. Features: • Change container without reencoding • Select, rearrange and duplicate tracks • Convert DTS to AC3 for e. ) A lot of streamers like to save a local copy of the video they stream out in order to edit it later, upload it to YouTube, or just keep an archive. mp4 -c:v libvpx-vp9 -crf 31 -b:v 0 output. mp4 Here, you are copying the video codec and audio codec so nothing is being encoded. m2v -i ES_Audio1. There are many ways to remux MKV to MP4, and more people are finding themselves in need of doing this, especially since Adobe removed support for this popula. Always > post the command line used, and its complete output messages. 1 with Blu-ray player and free converter Features: - Update decrypter with new AACS decryption schemes support. You can remux a BDMV provided that FFmpeg has been compiled with libbluray support. If you only want to change the container from MKV to MP4, you usually don't need to encode anything, you just change the "wrapping" around the video. Windows and Linux. The list of alternatives was updated Jul 2019. ffprobe is a simple analysis tool to inspect multimedia content. This solutions contains examples about Video Fomat Processing based on FFmpeg. 1 and many libs e. Download simplest ffmpeg format for free. It can also convert between arbitrary sample rates and resize video on the fly with a high quality polyphase filter. There are many ways to remux MKV to MP4, and more people are finding themselves in need of doing this, especially since Adobe removed support for this popula. ffmpeg-i input. Definitely the input, since it’ll now be a list of files, and the output too, so everything doesn’t end up named output. Does ffmpeg do Op Atom? Also, how many apps like Op Atom beyond Avid. C:\OpenPaths\ffmpeg. One file at a time ffmpeg -i input. mkv" ffmpeg -i in. These don’t play well on web video players or iOS devices. mxf -f null /dev/null 2> debug. PS3Muxer allows you to remux MKV files (which are not playable on the Sony PS3) with H. if you're using Ubuntu, or: yaourt ffmpeg. Download FFmpeg Batch AV Converter for free. If people want to use external binaries, say to use NVENC, it is possible configuring settings in your local UMS. ) are copied to a new. I'm not sure how you managed to create it. These examples assume ffmpeg is in your PATH. args: Array of ffmpeg arguments. simplest_ffmpeg_demuxer: Split Audio and Video bitstreams. But it seems logical problem will be this "DLNA. To remux your vídeos just open OBS an go to "File -> Remux recordings" If you want to know more about FFMPEG you can visit their website. Multimedia Mike Says: May 26th, 2010 at 7:47 pm. Using the following command, all the tracks (video, subtitles, chapters etc. Move the binaries to /usr/lib/jellyfin-ffmpeg rather than /usr/share/jellyfin-ffmpeg as per #2; uses transitional symlinks to avoid interrupting existing installs until this is changed in Jellyfin 10. -sn = disable subtitles Remux MPEG-2 PS/VOB: Fix audio sync in MPEG-2 vob files-vcodec copy -acodec copy: copy the video and the audio. You can drag and drop files based on Dr Mpeg's EVOB demuxer. Here's what I have so far:. m2v -i ES_Audio1. It will remux files that are h. In the end I used dvdfab to rip the title to one. If you want to bath process several NKV. Nor has this filter been tested with anyone who has photosensitive epilepsy. View Profile View Forum Posts Private Message Member Join Date Mar 2005 Location Portugal. mp4 -c:a libopus -c:v copy new. remux is a simple remux/recode app based on FFmpeg. mkv or ffmpeg -i original. > I'll convert the. To remux your vídeos just open OBS an go to "File -> Remux recordings" If you want to know more about FFMPEG you can visit their website. When trying to remux an m2ts file to mkv I using: ffmpeg -fflags +genpts -i "sample. Uncomplicated media converter featuring a well organized user interface. It’s possible to use FFmpeg to remux content from the command line. x with libfaac and x264 installed. Command line: ffmpeg. It's lossless when you remux your file format from MKV to MP4. If not just substitute with the full path to your ffmpeg binary. One file at a time ffmpeg -i input. 90-Convert To Almost Any Audio Format. Again, C:\OpenPaths\ is where you have your ffmpeg. It's lossless when you remux your file format from MKV to MP4. For example, a WAV file could be imported by Audacity's native WAV importer or by the optional FFmpeg library if this was installed. ffmpeg 是一個非常好用,功能無比強大的轉檔軟體。它的本體是命令列介面的,但是也有幾個圖形介面的皮。 ffmpeg 的基本語法大概是這樣: ffmpeg -i 輸入檔案的路徑 -c:v 影片軌編碼格式 -c:a 聲音軌編碼格式 輸出檔案的路徑. mp4 Here, you are copying the video codec and audio codec so nothing is being encoded. m3u8 -codec copy -hls_playlist_type vod remux/remux. Only other difference I found is my videos is that they were using the hex code of 67 40 00 33 instead of what you posted above and now everything works great. io/ folder and put all configuration files there. Summary of the bug: with some H264 files ffmpeg is able to stream copy the video stream perfectly fine, with other it's not able to. Using the following command, all the tracks (video, subtitles, chapters etc. mp4 file on our desktop over to MKV in our user’s “Movies” directory, it might look something like: /Applications/ffmpeg -i ~/Desktop/Christmas_Party_2014. # Version 49. Although it is powerful to some extent, many users are complaining its complexity to use. 87-Demux Audio From A Video. When I used Handbrake to rip “Sith” the resulting MP4 file was 6 GB big, but the MP4 I remuxed from MKV is over five times as. ffmpeg -i which only searches a short distance into the input file. mp4 -vcodec copy -acodec copy out. We also encourage you to check the files with your own antivirus before launching the installation. The main purpose of direct recording on the origin Nimble-server is: Remux and Uploading of the video files are not needed anymore. Stream #0:0: Video: h264 (Main), yuv420p(tv, bt470bg, top first), 544x576 [SAR 64:33 DAR 544:297], 25 fps, 25 tbr, 1k tbn, 50 tbc (default). Use the following command to remux the old video with the new audio AND trim the video: ffmpeg -i videofile. ffmpeg reads from an arbitrary number o ffmpeg (1) ffmpeg video converter. webm file will contain H. I want to remux all audio streams, or at the very least the english stream. I've uploaded the file "H264 Copy Remux Fail. mp4", so you don't really need FFMPEG. mp4 Converting WebM with H. ts -vcodec copy -acodec copy out. I have only output Op1a and I could not get Long GOP AVC to work in ffmpeg. Even if you only intend to use it to serve. Demux y remux de videos con ffmpeg El archivo de video para mi sorpresa traía varios idiomas, subtítulos y un índice de capítulos. mkv files created by makemkv do not play as smoothly as the. libavcodec provides implementation of a wider range of codecs. See full list on video. FFmpeg has added a realtime bright flash removal filter to libavfilter. I tried ffmpeg and tsMuxer but have not found a good combination that works well. mp4 Batch conversion example. It is able to collect multiple input sources (usually ffmpeg applications) and transcode/remux/broadcast each of them using multiple output streams. cpus: Taskset settings. m4a -c copy myAudioFile_REMUX. ORG_PN" string where tsMuxer or MEncoder engine is using correct type and it works there. With ffmpeg this can be achieved with -c copy. Just for fun, I converted audio. These examples assume ffmpeg is in your PATH. ts : It is the original source file. > MXPlayer plays it flawlessly. mp4 -c:v libvpx-vp9 -crf 31 -b:v 0 output. ffmpeg is a very fast video and audio converter that can also grab from a live audio/video source. Interestingly, FFmpeg converted the MP3 audio to AAC and muxed the file without so much as an informational message. 4 and above. FFmpeg is a collection of libraries and tools to process multimedia content such as audio, video, subtitles and related metadata. 7th Sep 2009 09:58 #17. FFmpeg Batch AV Converter is a front-end for Windows ffmpeg users, that allows to use the full potential of ffmpeg command line with a few mouse clicks in a convenient GUI with drag and drop, progress information, You can change encoding priority, pause and resume, set automatic. With ffmpeg this can be achieved with -c copy. ffxvid is a small yet quite capable Bash shell script written for the GNU/Linux and BSD operating systems that makes it easy to encode video files to MPEG-4 Part 2/Xvid video using the FFmpeg encoder and the libxvid library. $ ffmpeg -i video. 8 everything works fine, with 3. ffmpeg muxing corrupts file Additional info: * 1:3. Step 3: Click +Video to add the MKV file which you want to remux to MP4; If you have lots of files to remux, you can just choose the +Video Folder to import them all, and batch remux them at one go. No quality loss, just a container swap. FFmpeg and its photosensitivity filter are not making any medical claims. mp4 -codec copy -bsf:v hevc_mp4toannexb OUTPUT. It is one of the backends for many of the GUI tools mentioned in other answers. mkv" I get: ffmpeg -i in. Change it from None. Shotcut and MLT only support FFmpeg AVOptions, which is a subset of the ffmpeg command line tool’s option set. 3 msg: problems using vhook watermark: 4 msg: H264 Spatial Direct Mode: 10 msg: Confusion about mp4 and m4v: 3 msg: ffplay hangs at the end of an 'm2ts' stream: 5 msg: DVCPRO 50 input: 11 msg: ffmpeg on CentOS 4 (libavcodec from CentOS 4) 2 msg: setting frame rate for image2pipe: 2 msg. Command line: ffmpeg. Expedite simple ffmpeg actions. " "The output format is guessed according to the file. The main purpose of direct recording on the origin Nimble-server is: Remux and Uploading of the video files are not needed anymore. mxf -f null /dev/null 2> debug. Remuxing a BDMV. 1 remuxによるFFMPEGトリミングはキーフレームを書きません 人気のある質問 147 のJava 8メソッド参照:Iコンストラクタパラメータを要求する例外の種類と. 87-Demux Audio From A Video. I am on WindowsVista SP2 x86 & using the static win32 build of FFmpeg 1. So use ffmpeg to remux just the audio to the right container. wtv" to the FTP server. (Note for Studio users: OBS Studio can remux FLVs to MP4 as a built-in feature. srt -map 0 -map 1 -c copy -c:v libx264 -crf 23 -preset veryfast video-output. mp4 -vcodec copy -acodec copy out. com/builds/ and download the static build (32bit or 64bit according to your OS). To include ffmpeg-d in your dub project add the following dependency to your dub. We manufacture and sell various IP based receivers, such as our ADV-6000. There may be an easier method It doesnt matter from where you now the fps of your. So if more cores are available to you on EC2 you probably have to specifically have to ask for more cores with the threads 2 after c:v. Invoke ffmpeg then use the -i option to specify the input file. ffmpeg is a very fast video and audio converter that can also grab from a live audio/video source. Convert Multiple Files in Directory. showbox-public / ffmpeg-doc deb. Timecodes are of the form hh:mm:ss. It can also convert between arbitrary sample rates and resize video on the fly with a high quality polyphase filter. Selecting the Static build is recommended. x264 at latest versions from late July 2015 Added optional hardware transcoding support for Intel Evansport systems (DS214play, DS415play) built using Synology-modified sources for FFmpeg 2. Ask Question Asked 7 years, 5 months ago. This tool can change the H264 video stream Level to 4. Additional small tools such as aviocat, ismindex and qt-faststart. simplest_ffmpeg_demuxer: Split Audio and Video bitstreams. QtlMovie is a graphical front-end to ffmpeg and other media tools, with simplicity in mind. mkv" files to ". mkv -c copy example. x with libfaac and x264 installed. 86-Get Video File Info. The output of this command will change depending on the version of FFmpeg you have. Ffmpeg to remux MKV to MP4. You can download compiled FFmpeg from ffmpeg. 0 with the shared libraries linked with relative paths, required for Serviio DLNA media server, using a Ubuntu/Xubuntu Desktop 14. This has the problem of having to reencode the input, thus a quality loss. cpus: Taskset settings. The MP4 remux is a 1:1 copy of the original video, so it’s huge. mp4 -i audio. Move the binaries to /usr/lib/jellyfin-ffmpeg rather than /usr/share/jellyfin-ffmpeg as per #2; uses transitional symlinks to avoid interrupting existing installs until this is changed in Jellyfin 10. description: Description for ffmpeg process. Remux an MKV file into MP4 ffmpeg -i in. mp4 High-quality encoding. 2 FFmpeg is now compiled with https support via GNUTLS library (useful for online streams via plugins). mp3 into a wav file and tried this: ffmpeg -i video. The command ffmpeg -codecs will print every codec FFmpeg knows about. A very nice option is to save a live stream with ffmpeg in "server side task control". 89-Convert To Almost Any Video Format. mkv files created by makemkv do not play as smoothly as the. mkv -codec copy LostInTranslation. Using FFmpeg It’s possible to use FFmpeg to remux content from the command line. The -i flag, indicates the file name of the input. 264 stream to mpegts format with ffmpeg, you can use the command: ffmpeg -i INPUT. Step 1: Download FFmpeg. 88-Remux Audio Back Onto A Video. json (also the feature to change ffmpeg params and add new process from cli is in road map ). programster. "API example program to remux a media file with libavformat and libavcodec. PS3Muxer allows you to remux MKV files (which are not playable on the Sony PS3) with H. Using ffmpeg to Remux MKV to MP4 FFmpeg is a very powerful suite of video tools. Single file conversion example ffmpeg -i example. As a result, the only thing it changed during the process is the container. Tip: To convert all MKV files in the current directory, run a simple loop in terminal:. If you don't want to see it, you can add the -loglevel panic option to tell FFmpeg to only print serious errors and questions. Use ffmpeg to convert ALL asf,avi,m4v,mkv,mov,mp4,mpeg,mpg,ogm,rm,rmvb,ts,vob,wmv files to. Note, H265 encoding is coming soon. If people want to use external binaries, say to use NVENC, it is possible configuring settings in your local UMS. Expedite simple ffmpeg actions. MKVToolNix is a set of tools to create, alter and inspect Matroska files under Linux, other Unices and Windows. I want to remux all audio streams, or at the very least the english stream. I think I'm very close. So, it cannot be used here. 2 for Synology DSM 6. br Remux 4k. Just for fun, I converted audio. "API example program to remux a media file with libavformat and libavcodec. All I wanna do is Remux all 4,500 MKV files in a single folder to MP4. VLC and other players can look for this info directly in the video data, but. gif -i audio. Linear Pulse Code Modulation (LPCM, generally only described as PCM) is the format for uncompressed audio in media files and it is also the standard for CD-DA; note that in computers, LPCM is usually stored in container formats such as WAV, AIFF, or AU, or as raw audio format, although not technically necessary. I tried ffmpeg and tsMuxer but have not found a good combination that works well. mp4 The “itsoffset” in the above example is placed before file 1. You can use the remux app to quickly create MKV, MP4, M4V, AVI, TS, or VOB media files. put all video files into a folder (File name MUST NOT have Spaces) 2. Hello, i have a problem with FFMPEG I Have a Sony Bravia KDL 55EX715, using DeviceProfile Sony Bravia KDL, in this Profile FFMPEG using 100% CPU, when i using DeviceProfile Sony Playstation 3 then FFMPEG using 3-5% CPU by playing any File in Matroska Format (. m2ts -map 0:0 -vcodec copy -map 0:1 -acodec copy -map 0:9 -scodec copy Star-Wars. I have FFmpeg installed and checked it via CMD and it works, but I’m still confused how to batch a folder. FFmpeg comes with built-in capabilities for downmixing a 5. Uncomplicated media converter featuring a well organized user interface. 7 GiB 2020-06-02 14:58. 8 everything works fine, with 3. You can use the remux app to quickly create MKV, MP4, M4V, AVI, TS, or VOB media files. sub Wrote:This is a analog device, in the sense the video arrives as raw frames, and needs to be encoded/muxed using software. FFmpeg Batch AV Converter is a front-end for Windows ffmpeg users, that allows to use the full potential of ffmpeg command line with a few mouse clicks in a convenient GUI with drag and drop, progress information, You can change encoding priority, pause and resume, set automatic shutdown. Remux an MKV file into MP4 ffmpeg -i in. It produces a sufficiently good AAC LC. mkv Take note that one should replace “00:00:00” with the intended start time. Additional small tools such as aviocat, ismindex and qt-faststart. 2 FFmpeg is now compiled with https support via GNUTLS library (useful for online streams via plugins). webm -movflags faststart -profile:v high -level 4. I believe this is due to a lack of a centre speaker on my TV (no audio output, just the built in speakers). m2ts" -c:v copy -an "output. PS3Muxer allows you to remux MKV files (which are not playable on the Sony PS3) with H. Change it from None. streamid is a command line option and not an AVOption. Xvid-fast Xvid/MP3 Fast - Medium Quality avi-async 1 -deinterlace -vcodec mpeg4 -qscale 4 -vtag DX50-acodec libmp3lame -ac 2 -ab 128000 Xvid with MP3 Xvid with MP3 avi-async 1 -deinterlace -vcodec libxvid -qscale 4 -vtag DX50-acodec libmp3lame -ac 2 -ab 128000-threads 2 X264 with AAC X264 with AAC (Ipod) mp4-async 1 -deinterlace -vcodec libx264 -b 384000 -maxrate 768k -bufsize 384 -coder 0. libavcodec provides implementation of a wider range of codecs. If null then remux will use default ffmpeg from remux. mp4 -c:a libopus -c:v copy new. FFmpeg doesn't write a required part in the mp4 file (the avcC box where the h. mp4 You can even use an animated GIF for the video piece: ffmpeg -i video. mp4 -itsoffset 0. To include ffmpeg-d in your dub project add the following dependency to your dub. Then used the -codec copy option to instruct ffmpeg to use the same codec, followed the the name of the output file. i do not know how to write like that. Additional small tools such as aviocat, ismindex and qt-faststart. ffmpeg is a very fast video and audio converter that can also grab from a live audio/video source. "mp42" means a "compatible brand" "MP4 v2 [ISO 14496-14]". exe -i infile. mp4 某些選項 x264 與 FFmpeg 的預設值是不同的,例如在 x264 預設不使用 --slow-firstpass,但在 FFmpeg 中 -fsatfirstpass 0 (--slow-firstpass) 預設是使用,如果要關掉 --slow-firstpass 必須設定 -fsatfirstpass 1 。. 264 video and Vorbis or Opus audio(for example. The defaults depends on the encoder. You can get the latest Windows version from here or the latest Mac version from here. Multimedia Mike Says: May 26th, 2010 at 7:47 pm. bat extension. Play original. In your 1st posting, ffmpeg cli output, can be seen that the file is encode with threads=1, that suggests on EC2 only 1 cpu core is presented to ffmpeg. ffmpeg muxing corrupts file Additional info: * 1:3. The addition of an extra repository may be necessary. mp4 Converting WebM with H. Hi, whenever I remux a. $ ffmpeg -i video. Supports on-the-fly container-conversion (Remux) using ffmpeg demuxers (mov, mp4, avi, flv, matroska, mjpeg, mpegps, mpegts,. It’s a very powerful tool, but making the most use of it can be complicated for new users. Yes, the manual section linked gives several examples of using one or more "-map" commands, each followed by different args to select specific streams to be output ( -map 0, -map 0:1, -map 0:v, -map 0:a:2, etc). If you only want to change the container from MKV to MP4, you usually don't need to encode anything, you just change the "wrapping" around the video. Extract it somewhere that you will remember. Ask Question Asked 7 years, 5 months ago. Non-compression. bat extension. mov -c:v libx264 -crf 16 output. We manufacture and sell various IP based receivers, such as our ADV-6000. You can tell ffmpeg the start position of a segment with the -ss option and the length of a segment with the -t option. 264 video It will pull out any english subtitles and create SRT files from them. 这些问题概括起来就是2点:python封装的ffmpeg是否能够利用到多核CPU的并发优势?不同的编译参数能带来ffmpeg性能怎样的提升?gemfield本文就是从这2个角度出发来进行各种性能测试,并最终得出一个结论。 本文使用的测试程序是remux. Ffmpeg to remux MKV to MP4. 264 video to MP4 In some rare cases the. 0|48 kHz|16-bit|Picture based subtitle format used on BDs/HD-DVDs」 6. I am on WindowsVista SP2 x86 & using the static win32 build of FFmpeg 1. Under Show settings click the radio button that says All to switch from Simple to Advanced Preferences. i do not know how to write like that. Interestingly, FFmpeg converted the MP3 audio to AAC and muxed the file without so much as an informational message. If FFmpeg is missing you can easily install it right from the same terminal by typing: sudo apt-get install ffmpeg. m2ts files do so I was hoping to find an easy way to remux the mkv files. With ffmpeg this can be achieved with -c copy. Sin embargo al añadirlo a mi biblioteca de Plex, no era reconocido, por lo que decidí simplificar un poco el archivo y dejar solo la pista de video, el audio en español y en inglés y los subtítulos en. 0|48 kHz|16-bit|Picture based subtitle format used on BDs/HD-DVDs」 6. Download FFmpeg builds for Windows or macOS, available as LGPL or GPL. libavformat implements streaming protocols, container formats and basic I/O access. When I used Handbrake to rip “Sith” the resulting MP4 file was 6 GB big, but the MP4 I remuxed from MKV is over five times as. Using the following command, all the tracks (video, subtitles, chapters etc. For example to remux an MP4 file containing an HEVC stream to mpegts format with ffmpeg, you can use the command: ffmpeg -i INPUT. However it only took the first audio stream regardless of language. FFmpeg is a very powerful suite of video tools. It remuxes an RTSP input to an MP4 file. Discontinued ffmpeg video-encoding video-muxing. 509 Process D:\Alternative PSM\PS3 Media Server\win32. mkv" I get: ffmpeg -i in. を使用したいパラメータ化された結果. ffmpeg 将mp4转成flv. Tip: To convert all MKV files in the current directory, run a simple loop in terminal:. > > This may involve using ffmpeg on a PC to remux (without transcoding) the > > file into some format that the player recognizes, e. It remuxes an RTSP input to an MP4 file. Remux your File to MKV. Summary of the bug: with some H264 files ffmpeg is able to stream copy the video stream perfectly fine, with other it's not able to. Here's what I have so far:. mkv, or a file with that name doesn't exist. i found bits and pieces on the interwebz and just tried out commands. Then used the -codec copy option to instruct ffmpeg to use the same codec, followed the the name of the output file. Download FFmpeg Batch AV Converter for free. I want ffmpeg to automatically detect the container and codecs. A complete, cross-platform solution to record, convert and stream audio and video. When it operating to remux, the content of the video (or the audio) won't be altered. m2ts files do so I was hoping to find an easy way to remux the mkv files. Headers | FFVCL - Delphi FFmpeg VCL Components include a powerful video encoder VCL component for converting audio & video files from one format to another format and a video player VCL component for play various kinds of audio & video files without any other codecs. 264 stream to mpegts format with ffmpeg, you can use the command: ffmpeg -i INPUT. How to encode a 4K HDR movie using ffmpeg while maintaining selected auio tracks intact from source. ffmpeg -i LostInTranslation. bat extension. Available for Windows, Mac and Linux. It is one of the backends for many of the GUI tools mentioned in other answers. exe -i myAudioFile. > I'll convert the. "ffmpeg-d": "~>3. Remux TS to MPG: spedify stream order. mp4 You can even use an animated GIF for the video piece: ffmpeg -i video. All you need to do is to copy the text below into a notepad or equivalent text editor and save it with the. Windows and Linux. Ffmpeg is an audio/video encoding tool and it can handle multiple tasks. mp4 Here, you are copying the video codec and audio codec so nothing is being encoded. ffmpeg -i which only searches a short distance into the input file. Note, H265 encoding is coming soon. mp4 To convert a folder’s worth, identify what needs to change. ffmpeg is a command line toolbox to manipulate, convert and stream multimedia content. also want the script to delete the original video file before going to the next video file. mkv -codec copy LostInTranslation. ffmpeg is a very fast video and audio converter that can also grab from a live audio/video source. simplest_ffmpeg_demuxer: Split Audio and Video bitstreams. ts : It is the original source file. Remux TS to MPG: spedify stream order. Interestingly, FFmpeg converted the MP3 audio to AAC and muxed the file without so much as an informational message. mkv" -c copy "video-mp4" video. mpg -acodec copy -newaudio. FFmpeg 默认并不支持 rtmp 协议。需要先编译安装第三方库 librtmp,然后开启 --enable-librtmp 选项重新编译安装 FFmpeg。具体方法参考:"FFmpeg 开发环境构建" 3. 87-Demux Audio From A Video. to edit demo ffmped process or add new please look ~/. When it operating to remux, the content of the video (or the audio) won't be altered. But that could lead to timing problems. mkv or anything that remuxes for that matter. Nor has this filter been tested with anyone who has photosensitive epilepsy. ffmpeg-i input. This solutions contains examples about Video Fomat Processing based on FFmpeg. Before you run the ffmpeg command, run ls -l to make sure the file is there. 2 for Synology DSM 6. orElseThrow(). In a future article I’ll explore some alternative like encoding audio track externally and remux then with ffmpeg or mp4box. I HAVE THIS PROBLEM, HOW I CAN FIX IT? @BossBoss1271 - Either you're not in the same so directory as video. 89-Convert To Almost Any Video Format. There are many ways to remux MKV to MP4, and more people are finding themselves in need of doing this, especially since Adobe removed support for this popula. The ffmpeg command line converts the first 5 seconds of each input file to ProRes HQ with 24-bit audio, as an example. Headers | FFVCL - Delphi FFmpeg VCL Components include a powerful video encoder VCL component for converting audio & video files from one format to another format and a video player VCL component for play various kinds of audio & video files without any other codecs. 1 with Blu-ray player and free converter Features: - Update decrypter with new AACS decryption schemes support. Only other difference I found is my videos is that they were using the hex code of 67 40 00 33 instead of what you posted above and now everything works great. ffmpeg input. mxf using ffmpeg-r20416 and ffmbc: > ffmbc -debug 1 -i remux-d10. m3u8 FFmpeg includes an extra "Service" PID (17), but otherwise looks similar, except for the additional 1713244 bytes of overhead. In this case, though, it’s generally simple to use it for a simple remux. を使用したいパラメータ化された結果. ts -c copy -streamid 0:33 -streamid 1:36 out. MTS -c copy output. 150 -i clip. Ffmpeg is an audio/video encoding tool and it can handle multiple tasks. 4 and above. 55 alpha (because of the reference to the updated ffmpeg). This tool can change the H264 video stream Level to 4. 150 -i clip. Sin embargo, sólo se llevó el primer stream de audio sin importar el idioma. The second command, will use ffmpeg to extract the audio. r/ffmpeg: FFmpeg is the leading multimedia framework, able to decode, encode, transcode, mux, demux, stream, filter and play pretty much anything … Press J to jump to the feed. mp2 -vcodec copy -acodec copy -f vob output. Muxing to a. I don't have any media with two video tracks to test and show you a command line. mkv audio awesome+1 bash bookmarks chrome chromium corporate debian ext4 extension fedora ffmpeg firefox fix flash Fonts ftp. Actually, H. 1, Windows 7, Windows Vista and Windows XP on either a 32-bit or 64-bit setup. 90-Convert To Almost Any Audio Format. With FFMPEG we can send various files to the ADV-6000 for testing and development purposes. The software is periodically scanned by our antivirus system. Discontinued ffmpeg video-encoding video-muxing. For example, a WAV file could be imported by Audacity's native WAV importer or by the optional FFmpeg library if this was installed. PS3Muxer allows you to remux MKV files (which are not playable on the Sony PS3) with H. wtv" to the FTP server. mencoder (MPlayer's Movie Encoder) is a simple movie encoder, designed to encode MPlayer-playable movies (see above) to other MPlayer-playable formats (see below). ffmpeg -i input. It can also convert between arbitrary sample rates and resize video on the fly with a high quality polyphase filter. mp4 -i audio. Remux属于无损提取,而HD-DVD和Blu-Ray的Rip、Re制品是把原始的高清数据进行压缩和重编码,在小尺寸屏幕上比较,可能差别不太大,但若是在大尺寸高分辩率的显示设备(如投影仪)中播放,Remux在清晰度等方面的优势就很明显了。. Under FFmpeg audio/video decoder find the option that says Skip the loop filter for H. Help losslessly editing single-frame. I have FFmpeg installed and checked it via CMD and it works, but I’m still confused how to batch a folder. However, there are very few options needed to change containers. Download FFmpeg builds for Windows or macOS, available as LGPL or GPL. FFmpeg Alternatives The best FFmpeg alternatives based on verified products, votes, reviews and other factors. FFmpeg doesn't write a required part in the mp4 file (the avcC box where the h. Just for fun, I converted audio. mp4 -codec copy -bsf:v hevc_mp4toannexb OUTPUT. wav -c:v copy -c:a copy muxed. mp4", so you don't really need FFMPEG. As before, FFmpeg converted the WAV file to AAC and produced the muxed file. Ffmpeg is an audio/video encoding tool and it can handle multiple tasks. Same thing. For example, the following command changes an asf file to an MPEG-2 file:. mts video files made with Sony videocameras. /mux/manifest. FFmpeg comes with built-in capabilities for downmixing a 5. Use the following command to remux the old video with the new audio AND trim the video: ffmpeg -i videofile. Interestingly, FFmpeg converted the MP3 audio to AAC and muxed the file without so much as an informational message. modern futures -> modern features. 0 with the shared libraries linked with relative paths, required for Serviio DLNA media server, using a Ubuntu/Xubuntu Desktop 14. FFmpeg is a multiplatform, open-source library to record, convert and stream video and audio files. remux is a simple remux/recode app based on FFmpeg and has the following features, it can: Change container without reencoding Select and rearrange tracks it's a nice piece of software Download Aeyae Remux for free. Remux: Losslessly take out the video and audio data in HD-DVD and BluRay-DVD, and repackage into another container. How to rip a Blu-ray disc and remux it to MKV This article will guide you through the steps of ripping a Blu-ray disc, demux it and then remux it to mkv format. tivo files, which don't need any processing, it still requires ffmpeg as it uses it as part of the server routine to determine if a file, even a. By default, FFmpeg outputs a lot of text during the conversion. ) A lot of streamers like to save a local copy of the video they stream out in order to edit it later, upload it to YouTube, or just keep an archive. Sin embargo, sólo se llevó el primer stream de audio sin importar el idioma. Updated the ffmpeg binary to the latest version. I want ffmpeg to automatically detect the container and codecs. The MP4 remux is a 1:1 copy of the original video, so it’s huge. Based on the FFmpeg tool, remux is a straightforward macOS application that enables you to convert media files into popular file formats, while packing batch processing capabilities. mp4 -i subtitles. Nor has this filter been tested with anyone who has photosensitive epilepsy. This is how, for most models, you can remux them to mp4 without converting and thus without losing quality and waiting a long time for the conversion to complete. This tool is a GUI fronted for FFmpeg. Extract it somewhere that you will remember. mkv file unaltered except the audio track, which is converted to AC3. However it only took the first audio stream regardless of language. Remux: Losslessly take out the video and audio data in HD-DVD and BluRay-DVD, and repackage into another container. programster. A complete, cross-platform solution to record, convert and stream audio and video. About MKVToolNix. FFmpeg has added a realtime bright flash removal filter to libavfilter. wav -c:v copy -c:a copy muxed. mp4 You can even use an animated GIF for the video piece: ffmpeg -i video. Remuxing differs from Transcoding in that remuxing a file simply repackages the existing streams while transcoding actually creates new ones from a source. webm file will contain H. wtv" to the FTP server. mpg -acodec copy -newaudio. MPG file, the video stream in the resulting file is not stream #0. ts : It is the result after executed the command line : > ffmpeg. Anyway, for ffmpeg, I'm sticking to both WinFF and Avanti. ffmpeg -genpts 1 -i ES_Video. Uncomplicated media converter featuring a well organized user interface. FFMPEG FAQ mentions a trick where files are first encoded to MPEG2 file format, copy merging (or cat in Unix) mpeg2 files and then re-encoding merged file to AVI or MP4 format. ts -map 0:v -map. This solutions contains examples about Video Fomat Processing based on FFmpeg. ts -vcodec copy -acodec copy out. Remux problem: 1 msg: Using avcodec. FFMpeg; Remux; Transcode. Originally Posted by usta. My guess right now is that remux_video. exe -i /G/remux_problem_and_wrong_frame_order. mp4 The “itsoffset” in the above example is placed before file 1. 264 video and Vorbis or Opus audio(for example. Unfortunately NextPVR doesn't contain the components required to do this encoding and muxing for you, so this device isn't support natively. ffmpeg -i which only searches a short distance into the input file. mxf -c:v copy -c:a copy avc-i_1080i_25_ffmpeg. Single file conversion example ffmpeg -i example. He aquí lo que tengo hasta ahora:. I have tested both and it seems to me that libvo is the best alternative. Since May 1st 2003, the Matroska libraries themselves and my Matroska tools are officially available. Ffmpeg is an audio/video encoding tool and it can handle multiple tasks. cmd/remux_example: A C program demonstrating using videostreamer. Quiero video remux todos los flujos de audio, o, al menos, el inglés corriente. You can then use ffmpeg to remux the relevant tracks. "API example program to remux a media file with libavformat and libavcodec. 04 virtual machine. I don't wanna do this intermediate mpeg2 encoding, because the final format would be h264 mp4 file. Hi, whenever I remux a. For example, the following command changes an asf file to an MPEG-2 file:. mkv Which of course is a most terrible hack of converting ts -> mp4 -> mkv, but whatever works. m3u8 -codec copy -hls_playlist_type vod remux/remux. m4a -c:v copy -c:a copy output. If not just substitute with the full path to your ffmpeg binary. Guys, I need some help here. In your 1st posting, ffmpeg cli output, can be seen that the file is encode with threads=1, that suggests on EC2 only 1 cpu core is presented to ffmpeg. The positive side is portability and clear interface!. To remux MKV to MP4 with FFmpeg, you can copy the existing video and audio streams and put them into a new container. mp4 and new. Be sure to keep your file name exactly as it appears (for example, if your file name uses a capital letter, enter it using the capital letter in the. FFmpeg's mux/demux/remux examples. When it operating to remux, the content of the video (or the audio) won't be altered. remux was added by MarcFR in Feb 2011 and the latest update was made in Mar 2019. type the command like:. mp4 -codec copy -bsf:v hevc_mp4toannexb OUTPUT. ffmpeg -i input. 87-Demux Audio From A Video. webm file will contain H. 264 , HEVC ( H. YouTube-DL also uses FFmpeg to remux or convert data streams when needed too. When trying to remux an m2ts file to mkv I using: ffmpeg -fflags +genpts -i "sample. It can also convert between arbitrary sample rates and resize video on the fly with a high quality polyphase filter. Newer versions drop frames. We used the flag -vn that will instruct ffmpeg to disable video recording. [Thread-563] TRACE 22:12:24. exe -i /G/remux_problem_and_wrong_frame_order. wtv" to the FTP server. OBS Studio has an option to remux ". Download FFmpeg builds for Windows or macOS, available as LGPL or GPL. If you're on a Mac, I recommend putting ffmpeg into the folder where the video is that you want to convert. mp4 -i audio. $ ffmpeg -i video. Already we Publish the Method to Install youtube-dl on Ubuntu - youtube-dl Software Helps us to Download the Videos & Audios from Youtube in Different Formats. You can also use ffmpeg to convert your audio to. make sure you have ffmpeg 2. I quickly gave up trying to get it to work since I had no vested interest and the user was happy with the MOV remux. I want to use FFmpeg to remux losslessly into the MP4 container, preferably with a one-step-process, but I want the ftyp atom of the mp4 file to be mp42. If the video is supported but not the audio; does it transcode both, or does it direct stream the video and just transcode the audio? Direct video, transcode audio. If FFmpeg is missing you can easily install it right from the same terminal by typing: sudo apt-get install ffmpeg. The second command, will use ffmpeg to extract the audio. The FFmpeg website has links to downloads for multiple operating systems or you could even get the source code and build from source. mts video files made with Sony videocameras. Newer versions drop frames. mp4 -i audio. I think I'm very close. ffmpeg is a very fast video and audio converter that can also grab from a live audio/video source. ts -vcodec copy -an > /G/result_remuxed. 摘要:Ffmpeg是一款功能强大的视频处理工具,那么转码肯定不是问题的,因为项目的需求,对转码进行了研究。刚开始首先去看了ffmpeg源代码中的一个例子transcode. 264 video to MP4 In some rare cases the. 264 and will transcode files that aren’t h. In a future article I’ll explore some alternative like encoding audio track externally and remux then with ffmpeg or mp4box. Move the binaries to /usr/lib/jellyfin-ffmpeg rather than /usr/share/jellyfin-ffmpeg as per #2; uses transitional symlinks to avoid interrupting existing installs until this is changed in Jellyfin 10. I've uploaded the file "H264 Copy Remux Fail. Move the binaries to /usr/lib/jellyfin-ffmpeg rather than /usr/share/jellyfin-ffmpeg as per #2; uses transitional symlinks to avoid interrupting existing installs until this is changed in Jellyfin 10. mkv audio awesome+1 bash bookmarks chrome chromium corporate debian ext4 extension fedora ffmpeg firefox fix flash Fonts ftp. mp4 file on our desktop over to MKV in our user’s “Movies” directory, it might look something like: /Applications/ffmpeg -i ~/Desktop/Christmas_Party_2014. This table describes which video and audio formats VLC can output, and how these can be muxed. make sure you have ffmpeg 2. (Note for Studio users: OBS Studio can remux FLVs to MP4 as a built-in feature. FFmpeg-related articles from Linux Uprising: How To Download A YouTube Playlist And Convert It To MP3 Using youtube-dl and FFmpeg (Command Line) FFmpeg: Extract Audio From Video In Original Format Or Converting It To MP3 Or Ogg Vorbis; ffmpegfs Is A FUSE-Based Filesystem For Transcoding Video And Audio On The Fly When Opened. Re: ffmpeg "newaudio" parameter. It is one of the backends for many of the GUI tools mentioned in other answers. Quiero video remux todos los flujos de audio, o, al menos, el inglés corriente. It's possible to update the information on remux or report it as discontinued, duplicated or spam. Press question mark to learn the rest of the keyboard shortcuts. Download FFmpeg builds for Windows or macOS, available as LGPL or GPL. Radarr prefer x265. The output of this command will change depending on the version of FFmpeg you have. Stream #0:0: Video: h264 (Main), yuv420p(tv, bt470bg, top first), 544x576 [SAR 64:33 DAR 544:297], 25 fps, 25 tbr, 1k tbn, 50 tbc (default). There may be an easier method It doesnt matter from where you now the fps of your. It seems the problem is again "DLNA. The download version of ffmpeg for Mac is 2. "ffmpeg-d": "~>3. If you want to avoid using avidemux and having to remux files one by one I've written a ffmpeg string so you can remux just by double clicking. The ffmpeg command line converts the first 5 seconds of each input file to ProRes HQ with 24-bit audio, as an example. See full list on video. webm files created using the MediaRecorder API on Chrome 52+ ). FFmpeg has added a realtime bright flash removal filter to libavfilter. mkv If you’re unsure about what CRF to use, begin with the default and change it according to your subjective impression of the output. The addition of an extra repository may be necessary. 509 Process D:\Alternative PSM\PS3 Media Server\win32. 556 Starting transcode/remux of 17 February, 2011 [win32\ffmpeg. As before, FFmpeg converted the WAV file to AAC and produced the muxed file. You can get the latest Windows version from here or the latest Mac version from here. mov -c:v libx264 -crf 16 output. It can also convert between arbitrary sample rates and resize video on the fly with a high quality polyphase filter. FFmpeg has added a realtime bright flash removal filter to libavfilter. This happens with the. You can use the remux app to quickly create MKV, MP4, M4V, AVI, TS, or VOB media files. Nor width nor height are set, no audio sample rate either. mts -acodec copy -vcodec copy -scodec copy combined_indexfixed. View Profile View Forum Posts Private Message Member Join Date Mar 2005 Location Portugal. To use FFmpeg, you'll call the binary from the command line and give it various arguments or parameters to tell it what to do. It is usually too slow, yet you can visualise immediately the moving images without having to re-encode and remux into a new file. Hi, whenever I remux a. OVA「JPBD Remux|MKV|h264|8-bit|1080p|16:9|PCM 2.